Forums
in > Search
Welcome to Pinnacle Systems - Forums Sign in | Join | Help

sharper videos

Last post 12-30-2019, 17:02 by anon125. 26 replies.
Page 1 of 2 (27 items)   1 2 Next >
Sort Posts: Previous Next
  •  12-21-2019, 13:04 792631

    sharper videos

    we got a new monitor to go with our treadmill. not 4k

    when we watch downloaded videos there are sharp.

    put in our disks or files made with pinnacle 12.1 they are fuzzy.

    the pictures for the video are sharp.

    how do we make a video with them to be as sharp as our downloaded ones?

    thanks all

  •  12-21-2019, 15:14 792636 in reply to 792631

    Re:sharper videos

    Without informations on the videos you download and on the videos you create, we can't help you.

    What's their image definition ?

    What's the definition of your screen ?

  •  12-21-2019, 15:28 792637 in reply to 792636

    Re: Re:sharper videos

    the videos are travel videos from around 2012

     image resolution is 300

     monitor is a viewsonic 2230

    hope that helps

    Thanks

  •  12-21-2019, 15:35 792638 in reply to 792637

    Re: Re:sharper videos

    anon125:

     image resolution is 300

    There are 2 numbers in a non standard definition

    anon125:

    hope that helps

    Not really ...

  •  12-21-2019, 15:37 792639 in reply to 792638

    Re: Re:sharper videos

    300 is the resolution of the images.are 1920 x 1080

     

    viewsonic TD2230 - 22" Display, IPS Panel, 1920 x 1080 Resolution

    thanks

  •  12-21-2019, 15:41 792640 in reply to 792639

    Re: Re:sharper videos

    anon125:

    300 is the resolution of the images.are 1920 x 1080

    Sorry, I don't understand

  •  12-21-2019, 16:08 792643 in reply to 792640

    Re: Re:sharper videos

    images are at 300 is it DPI?

    and their size is  1920 x 1080

    thanks

    PS the  travel videos are MP4 same size i assume as they fill the screen.

  •  12-21-2019, 16:32 792644 in reply to 792643

    Re: Re:sharper videos

    anon125:

    images are at 300 is it DPI?

    DPI (Dots Per Inche) are for scanners, printers and mouses, not videos.

     

  •  12-21-2019, 16:37 792645 in reply to 792643

    Re: Re:sharper videos

    media info on sharp video

    General
    Complete name                            : Z:\videos\Videos for the treadmill tablet\travel
    Format                                   : MPEG-4
    Format profile                           : Base Media / Version 2
    Codec ID                                 : mp42 (isom/mp42)
    File size                                : 289 MiB
    Duration                                 : 25 min 1 s
    Overall bit rate mode                    : Variable
    Overall bit rate                         : 1 612 kb/s
    Encoded date                             : UTC 2018-10-31 23:26:28
    Tagged date                              : UTC 2018-10-31 23:26:28
    gsst                                     : 0
    gstd                                     : 1501889

    Video
    ID                                       : 1
    Format                                   : AVC
    Format/Info                              : Advanced Video Codec
    Format profile                           : Main@L3.1
    Format settings                          : CABAC / 3 Ref Frames
    Format settings, CABAC                   : Yes
    Format settings, RefFrames               : 3 frames
    Codec ID                                 : avc1
    Codec ID/Info                            : Advanced Video Coding
    Duration                                 : 25 min 1 s
    Bit rate                                 : 1 483 kb/s
    Width                                    : 1 280 pixels
    Height                                   : 720 pixels
    Display aspect ratio                     : 16:9
    Frame rate mode                          : Constant
    Frame rate                               : 29.970 (30000/1001) FPS
    Color space                              : YUV
    Chroma subsampling                       : 4:2:0
    Bit depth                                : 8 bits
    Scan type                                : Progressive
    Bits/(Pixel*Frame)                       : 0.054
    Stream size                              : 265 MiB (92%)
    Title                                    : ISO Media file produced by Google Inc. Created on: 10/31/2018.
    Encoded date                             : UTC 2018-10-31 23:26:28
    Tagged date                              : UTC 2018-10-31 23:26:28
    Color range                              : Limited
    Color primaries                          : BT.709
    Transfer characteristics                 : BT.709
    Matrix coefficients                      : BT.709
    Codec configuration box                  : avcC

    Audio
    ID                                       : 2
    Format                                   : AAC LC
    Format/Info                              : Advanced Audio Codec Low Complexity
    Codec ID                                 : mp4a-40-2
    Duration                                 : 25 min 1 s
    Source duration                          : 25 min 1 s
    Bit rate mode                            : Variable
    Bit rate                                 : 126 kb/s
    Channel(s)                               : 2 channels
    Channel layout                           : L R
    Sampling rate                            : 44.1 kHz
    Frame rate                               : 43.066 FPS (1024 SPF)
    Compression mode                         : Lossy
    Stream size                              : 22.5 MiB (8%)
    Source stream size                       : 22.5 MiB (8%)
    Title                                    : ISO Media file produced by Google Inc. Created on: 10/31/2018.
    Language                                 : English
    Encoded date                             : UTC 2018-10-31 23:26:28
    Tagged date                              : UTC 2018-10-31 23:26:28

    thanks

  •  12-22-2019, 4:09 792650 in reply to 792645

    Re: Re:sharper videos

    So, that's HD.

    Would you provide the same info with your videos ? I assume they are SD.

  •  12-22-2019, 13:49 792667 in reply to 792650

    Re: Re:sharper videos

    I put in the DVD (not blue ray) but media info thing did not popup?

    What now?

    Thanks

     

    PS maybe sharp video is too big for a DVD

  •  12-22-2019, 13:57 792668 in reply to 792667

    Re: Re:sharper videos

    went to the VOB file

    choose the biggest...

    General
    Complete name                            : D:\VIDEO_TS\VTS_01_1.VOB
    Format                                   : MPEG-PS
    File size                                : 1 024 MiB
    Duration                                 : 7 min 33 s
    Overall bit rate mode                    : Variable
    Overall bit rate                         : 18.9 Mb/s

    Video
    ID                                       : 224 (0xE0)
    Format                                   : MPEG Video
    Format version                           : Version 2
    Format profile                           : Main@Main
    Format settings                          : CustomMatrix / BVOP
    Format settings, BVOP                    : Yes
    Format settings, Matrix                  : Custom
    Format settings, GOP                     : M=3, N=15
    Format settings, picture structure       : Frame
    Duration                                 : 7 min 33 s
    Bit rate mode                            : Variable
    Bit rate                                 : 18.4 Mb/s
    Maximum bit rate                         : 8 500 kb/s
    Width                                    : 720 pixels
    Height                                   : 480 pixels
    Display aspect ratio                     : 16:9
    Frame rate                               : 29.970 (30000/1001) FPS
    Standard                                 : NTSC
    Color space                              : YUV
    Chroma subsampling                       : 4:2:0
    Bit depth                                : 8 bits
    Scan type                                : Interlaced
    Scan order                               : Top Field First
    Compression mode                         : Lossy
    Bits/(Pixel*Frame)                       : 1.774
    Time code of first frame                 : 00:00:06:01
    Time code source                         : Group of pictures header
    GOP, Open/Closed                         : Open
    GOP, Open/Closed of first frame          : Closed
    Stream size                              : 993 MiB (97%)
    Color primaries                          : BT.601 NTSC
    Transfer characteristics                 : BT.601
    Matrix coefficients                      : BT.601

    Audio
    ID                                       : 189 (0xBD)-128 (0x80)
    Format                                   : AC-3
    Format/Info                              : Audio Coding 3
    Commercial name                          : Dolby Digital
    Muxing mode                              : DVD-Video
    Duration                                 : 7 min 33 s
    Bit rate mode                            : Constant
    Bit rate                                 : 192 kb/s
    Channel(s)                               : 2 channels
    Channel layout                           : L R
    Sampling rate                            : 48.0 kHz
    Frame rate                               : 31.250 FPS (1536 SPF)
    Bit depth                                : 16 bits
    Compression mode                         : Lossy
    Stream size                              : 10.4 MiB (1%)
    Service kind                             : Complete Main

    Menu

    thanks for your help

  •  12-23-2019, 11:33 792716 in reply to 792668

    Re: Re:sharper videos

    A SD video displayed on a HD screen can't be as sharp as a HD video displayed on a HD screen.
  •  12-23-2019, 12:03 792718 in reply to 792716

    Re: Re:sharper videos

    so what do i do to get the sharpest videos like the travel one?

    i assume it will have to be a file instead of on a DVD.

    thanks
  •  12-23-2019, 12:10 792720 in reply to 792718

    Re: Re:sharper videos

    Export a HD file.
  •  12-23-2019, 13:22 792721 in reply to 792720

    Re: Re:sharper videos

    thanks

    what settings would you suggest

     

     

  •  12-23-2019, 15:26 792733 in reply to 792721

    Re: Re:sharper videos

    Are your source footage HD ?
  •  12-23-2019, 15:44 792735 in reply to 792733

    Re: Re:sharper videos

    just our pictures that we took and are 300dpi and the above size

    thanks

  •  12-23-2019, 15:49 792736 in reply to 792735

    Re: Re:sharper videos

    DPI are meaningless for videos.

    If your footage are SD, you won't get a better result if you export them in HD.

  •  12-23-2019, 16:31 792737 in reply to 792736

    Re: Re:sharper videos

    no footage

    just our pics in pinnacle 12.1

    what settings do you suggest to get sharp videos like the travel thing above

    thanks saby

  •  12-24-2019, 3:33 792745 in reply to 792737

    Re: Re:sharper videos

    anon125:

    no footage

    just our pics in pinnacle 12.1

    I don't understand. You mean still pictures ?

  •  12-24-2019, 11:32 792775 in reply to 792745

    Re: Re:sharper videos

    yes

    thanks

  •  12-27-2019, 15:18 792840 in reply to 792775

    Re: Re:sharper videos

    the sharpest setting to make a video with still images

    thanks

  •  12-29-2019, 14:02 792954 in reply to 792840

    Re: Re:sharper videos

    Read this :http://forums.pinnaclesys.com/forums/thread/727664.aspx
  •  12-30-2019, 13:15 793000 in reply to 792954

    Re: Re:sharper videos

    Your search - :http://forums.pinnaclesys.com/forums/thread/727664.aspx - did not match any documents.

    thanks

Page 1 of 2 (27 items)   1 2 Next >
View as RSS news feed in XML
Copyright © 2012 Corel, Inc.. Terms of Use | Privacy Policy