Welcome to Pinnacle Systems - Forums Sign in | Join | Help

Another "error opening video file"

  •  05-18-2022, 12:44

    Another "error opening video file"

    Attachment: Handbrake.PNG

    I ran it through Mediainfo and made a log but I have no idea what to do with it? Where do I look and what am I looking for? I have 32 bit Studio 11.

     General

    Complete name                            : C:\Users\Micha\Videos\TV\Places\Texas\2022-05-01 15-00-40.mp4

    Format                                   : MPEG-4

    Format profile                           : Base Media

    Codec ID                                 : isom (isom/iso2/avc1/mp41)

    File size                                : 4.21 GiB

    Duration                                 : 29 min 54 s

    Overall bit rate mode                    : Constant

    Overall bit rate                         : 20.2 Mb/s

    Writing application                      : Lavf58.29.100


    Video

    ID                                       : 1

    Format                                   : AVC

    Format/Info                              : Advanced Video Codec

    Format profile                           : High@L4

    Format settings                          : CABAC / 3 Ref Frames

    Format settings, CABAC                   : Yes

    Format settings, Reference frames        : 3 frames

    Format settings, GOP                     : M=4, N=89

    Codec ID                                 : avc1

    Codec ID/Info                            : Advanced Video Coding

    Duration                                 : 29 min 54 s

    Bit rate mode                            : Constant

    Bit rate                                 : 20.0 Mb/s

    Width                                    : 1 440 pixels

    Height                                   : 900 pixels

    Display aspect ratio                     : 16:10

    Frame rate mode                          : Variable

    Frame rate                               : 29.970 (29970/1000) FPS

    Minimum frame rate                       : 14.985 FPS

    Maximum frame rate                       : 29.970 FPS

    Original frame rate                      : 29.970 (30000/1001) FPS

    Color space                              : YUV

    Chroma subsampling                       : 4:2:0

    Bit depth                                : 8 bits

    Scan type                                : Progressive

    Bits/(Pixel*Frame)                       : 0.515

    Stream size                              : 4.18 GiB (99%)

    Codec configuration box                  : avcC


    Audio

    ID                                       : 2

    Format                                   : AAC LC

    Format/Info                              : Advanced Audio Codec Low Complexity

    Codec ID                                 : mp4a-40-2

    Duration                                 : 29 min 54 s

    Bit rate mode                            : Constant

    Bit rate                                 : 161 kb/s

    Channel(s)                               : 2 channels

    Channel layout                           : L R

    Sampling rate                            : 44.1 kHz

    Frame rate                               : 43.066 FPS (1024 SPF)   

    Compression mode                         : Lossy

    Stream size                              : 34.4 MiB (1%)

    Title                                    : adv_aac0

    Default                                  : Yes

    Alternate group                          : 1



View Complete Thread
Copyright © 2012 Corel, Inc.. Terms of Use | Privacy Policy