Welcome to Pinnacle Systems - Forums Sign in | Join | Help

Re: Re:Video quality degrades after rendering

  •  04-27-2022, 22:36

    Re: Re:Video quality degrades after rendering

    Here is the original before rendering

     

    General

    Complete name                            : C:\Movies\Star Wars\Episode 3 • Revenge of The Sith.mp4

    Format                                   : MPEG-4

    Format profile                           : Base Media / Version 2

    Codec ID                                 : mp42 (isom/iso2/avc1/mp41)

    File size                                : 1.49 GiB

    Duration                                 : 2 h 20 min

    Overall bit rate mode                    : Variable

    Overall bit rate                         : 1 520 kb/s

    Movie name                               : 03 Star Wars Episode III Revenge of the Sith - George Lucas 2005 Eng Subs 720p [H264-mp4]

    Genre                                    : Sci-Fi Adventure

    Recorded date                            : 2005

    Encoded date                             : UTC 2021-12-31 00:45:15

    Tagged date                              : UTC 2021-12-31 00:45:15

    Writing application                      : HandBrake 1.1.2 2018090500


    Video

    ID                                       : 1

    Format                                   : AVC

    Format/Info                              : Advanced Video Codec

    Format profile                           : Main@L3.1

    Format settings                          : CABAC / 4 Ref Frames

    Format settings, CABAC                   : Yes

    Format settings, Reference frames        : 4 frames

    Codec ID                                 : avc1

    Codec ID/Info                            : Advanced Video Coding

    Duration                                 : 2 h 20 min

    Bit rate                                 : 1 352 kb/s

    Width                                    : 1 280 pixels

    Height                                   : 544 pixels

    Display aspect ratio                     : 2.35:1

    Frame rate mode                          : Constant

    Frame rate                               : 29.970 (30000/1001) FPS

    Color space                              : YUV

    Chroma subsampling                       : 4:2:0

    Bit depth                                : 8 bits

    Scan type                                : Progressive

    Bits/(Pixel*Frame)                       : 0.065

    Stream size                              : 1.32 GiB (89%)

    Writing library                          : x264 core 155 r2901 7d0ff22

    Encoding settings                        : cabac=1 / ref=2 / deblock=1:0:0 / analyse=0x1:0x111 / me=hex / subme=6 / psy=1 / psy_rd=1.00:0.00 / mixed_ref=1 / me_range=16 / chroma_me=1 / trellis=1 / 8x8dct=0 / cqm=0 / deadzone=21,11 / fast_pskip=1 / chroma_qp_offset=-2 / threads=6 / lookahead_threads=1 / sliced_threads=0 / nr=0 / decimate=1 / interlaced=0 / bluray_compat=0 / constrained_intra=0 / bframes=3 / b_pyramid=2 / b_adapt=1 / b_bias=0 / direct=1 / weightb=1 / open_gop=0 / weightp=1 / keyint=300 / keyint_min=30 / scenecut=40 / intra_refresh=0 / rc_lookahead=30 / rc=crf / mbtree=1 / crf=21.0 / qcomp=0.60 / qpmin=0 / qpmax=69 / qpstep=4 / vbv_maxrate=14000 / vbv_bufsize=14000 / crf_max=0.0 / nal_hrd=none / filler=0 / ip_ratio=1.40 / aq=1:1.00

    Encoded date                             : UTC 2021-12-31 00:45:15

    Tagged date                              : UTC 2021-12-31 00:45:15

    Color range                              : Limited

    Color primaries                          : BT.709

    Transfer characteristics                 : BT.709

    Matrix coefficients                      : BT.709

    Menus                                    : 3

    Codec configuration box                  : avcC


    Audio

    ID                                       : 2

    Format                                   : AAC LC

    Format/Info                              : Advanced Audio Codec Low Complexity

    Codec ID                                 : mp4a-40-2

    Duration                                 : 2 h 20 min

    Bit rate mode                            : Variable

    Bit rate                                 : 161 kb/s

    Channel(s)                               : 2 channels

    Channel layout                           : L R

    Sampling rate                            : 48.0 kHz

    Frame rate                               : 46.875 FPS (1024 SPF)

    Compression mode                         : Lossy

    Stream size                              : 161 MiB (11%)

    Title                                    : Stereo / Stereo

    Language                                 : English

    Default                                  : Yes

    Alternate group                          : 1

    Encoded date                             : UTC 2021-12-31 00:45:15

    Tagged date                              : UTC 2021-12-31 00:45:15

    Menus                                    : 3


    Menu

    ID                                       : 3

    Format                                   : Timed Text

    Codec ID                                 : text

    Duration                                 : 2 h 20 min

    Language                                 : English

    Encoded date                             : UTC 2021-12-31 00:45:15

    Tagged date                              : UTC 2021-12-31 00:45:15

    Menu For                                 : 1,2

    00:00:00.000                             : Opening

    00:00:23.524                             : Revenge of the Sith

    00:01:50.110                             : Battle Over Coruscant

    00:08:28.174                             : General Grievous

    00:11:23.449                             : Rescuing the Chancellor

    00:18:33.779                             : Confronting Grievous

    00:23:40.519                             : Happy Reunions

    00:27:37.723                             : Grievous on Utapau

    00:29:12.985                             : Bad Dreams

    00:33:18.930                             : Counsel with Yoda

    00:35:45.477                             : The Chancellors Request

    00:36:48.039                             : On the Jedi Council

    00:38:21.533                             : Secret Assignment

    00:40:17.482                             : Not the Chosen One

    00:41:18.743                             : Seeds of Distrust

    00:42:41.125                             : Tragedy of Darth Plagueis

    00:48:01.712                             : Kashyyyk

    00:50:20.518                             : Brothers Farewell

    00:52:24.975                             : A Hero Lost

    00:53:58.235                             : Arrival on Utapau

    00:56:26.483                             : Obi-Wan vs Grievous

    01:00:56.319                             : Jedi War Council

    01:01:56.646                             : Sidious Revealed

    01:05:26.089                             : Utapau Chase

    01:07:40.723                             : Mace Learns the Truth

    01:09:07.043                             : Anakins Fatal Decision

    01:10:53.015                             : Mace vs Sidious

    01:15:19.248                             : Rise Lord Vader

    01:19:15.251                             : March on the Jedi Temple

    01:20:37.499                             : Order Sixty-Six

    01:24:20.622                             : Time to Leave

    01:27:56.605                             : Wait for Me

    01:29:57.392                             : The Heroes Regroup

    01:33:40.448                             : Birth of the Empire

    01:36:39.527                             : The Terrible Truth

    01:38:35.576                             : Obi-Wan Confronts Padmai

    01:41:24.512                             : Padmais Departure

    01:42:57.004                             : You're Breaking My Heart

    01:48:18.892                             : Yoda Visits the Emperor

    01:50:59.486                             : Battle of the Heroes

    01:52:44.024                             : Yoda vs Sidious

    01:54:22.856                             : Narrow Escapes

    01:56:54.941                             : Immolation

    02:02:21.000                             : The Emperor Arrives

    02:03:32.906                             : Secret Delivery

    02:05:19.679                             : Birth and Rebirth

    02:07:37.150                             : Darth Vader Awakes

    02:08:57.163                             : The Future of the Twins

    02:12:05.017                             : A New Hope

    02:13:47.419                             : End

     

     After rendering (or is "exporting the correct word?)

    General

    Complete name                            : C:\Users\Micha\Videos\Clips\You Voted.mp4

    Format                                   : MPEG-4

    Format profile                           : Base Media / Version 2

    Codec ID                                 : mp42 (mp42/isom)

    File size                                : 18.0 MiB

    Duration                                 : 1 min 21 s

    Overall bit rate mode                    : Variable

    Overall bit rate                         : 1 864 kb/s

    Encoded date                             : UTC 2022-04-17 16:47:07

    Tagged date                              : UTC 2022-04-17 16:47:07


    Video

    ID                                       : 1

    Format                                   : MPEG-4 Visual

    Format profile                           : Simple@L3

    Format settings, BVOP                    : No

    Format settings, QPel                    : No

    Format settings, GMC                     : No warppoints

    Format settings, Matrix                  : Default (H.263)

    Codec ID                                 : mp4v-20

    Duration                                 : 1 min 21 s

    Bit rate mode                            : Variable

    Bit rate                                 : 1 669 kb/s

    Maximum bit rate                         : 3 411 kb/s

    Width                                    : 1 280 pixels

    Height                                   : 720 pixels

    Display aspect ratio                     : 16:9

    Frame rate mode                          : Variable

    Frame rate                               : 29.970 FPS

    Minimum frame rate                       : 29.940 FPS

    Maximum frame rate                       : 29.970 FPS

    Color space                              : YUV

    Chroma subsampling                       : 4:2:0

    Bit depth                                : 8 bits

    Scan type                                : Progressive

    Compression mode                         : Lossy

    Bits/(Pixel*Frame)                       : 0.060

    Stream size                              : 16.2 MiB (90%)

    Language                                 : English

    Encoded date                             : UTC 2022-04-17 16:47:07

    Tagged date                              : UTC 2022-04-17 16:47:07


    Audio

    ID                                       : 2

    Format                                   : AAC LC

    Format/Info                              : Advanced Audio Codec Low Complexity

    Codec ID                                 : mp4a-40-2

    Duration                                 : 1 min 21 s

    Bit rate mode                            : Variable

    Bit rate                                 : 192 kb/s

    Maximum bit rate                         : 195 kb/s

    Channel(s)                               : 2 channels

    Channel layout                           : L R

    Sampling rate                            : 48.0 kHz

    Frame rate                               : 46.875 FPS (1024 SPF)

    Compression mode                         : Lossy

    Stream size                              : 1.86 MiB (10%)

    Language                                 : English

    Encoded date                             : UTC 2022-04-17 16:47:07

    Tagged date                              : UTC 2022-04-17 16:47:07


    Other #1

    ID                                       : 3

    Type                                     : Object description

    Format                                   : System Core

    Codec ID                                 : mp4s-02

    Duration                                 : 1 min 21 s

    Stream size                              : 41.8 MiB

    Source stream size                       : 18.0 Bytes

    Language                                 : English


    Other #2

    ID                                       : 4

    Type                                     : Scene description

    Format                                   : System Core

    Codec ID                                 : mp4s-02

    Duration                                 : 1 min 21 s

    Stream size                              : 37.1 MiB

    Source stream size                       : 16.0 Bytes

    Language                                 : English


     

     

View Complete Thread
Copyright © 2012 Corel, Inc.. Terms of Use | Privacy Policy