Forums
in > Search
Welcome to Pinnacle Systems - Forums Sign in | Join | Help

Plus de son à l'importation de mes fichiers MTS - studio 23

Last post 07-13-2021, 10:31 by saby. 5 replies.
Sort Posts: Previous Next
  •  07-12-2021, 4:32 815534

    Plus de son à l'importation de mes fichiers MTS - studio 23

    Bonjour - Je reprends le montage que j'avais arrêté depuis un moment (fichiers déjà stockés sur le disque dur et nouveaux venant d'une petite caméra sony filmant en avchd. Surprise, je n'ai aucune piste son à l'importation. Mon PC lit ces fichiers sans problèmes mais le son disparaît dans studio. J'ai essayé de réinitialiser le programme mais sans succès. Je précise que ces mêmes fichiers ne posaient aucun problème il y a quelques mois (même caméra, même logiciel, même version de windows 7). Studio conserve le son sur d'autres formats (mp4 par exemple) mais ne lit plus les fichiers MTS, même d'anciennes vidéos qu'il lisait avant. Un codec aurait disparu ? Information sur un des fichiers ci-dessous. Merci

  •  07-12-2021, 10:02 815541 in reply to 815534

    Re:Plus de son à l'importation de mes fichiers MTS - studio 23

    Salut,

    On ne voit pas ta capture d'écran, car à cause de la façon avec laquelle tu as inséré ton image j'ai dû approuver ton message dans le Panneau de modération du forum et en éditer le code HTML pour supprimer l'image qui posait pb.

    Pour insérer une image : http://forums.pinnaclesys.com/forums/thread/668704.aspx

    Tu confirmes que ton PC est sous Win7 ?

     

  •  07-12-2021, 12:56 815543 in reply to 815541

    Re:Plus de son à l'importation de mes fichiers MTS - studio 23

    Et oui toujours sous W7. J'ai cru comprendre que c'était la cause du problème pour les fichiers sons en AC3.
  •  07-12-2021, 13:14 815545 in reply to 815534

    Re:Plus de son à l'importation de mes fichiers MTS - studio 23

    JLD29:

    Je précise que ces mêmes fichiers ne posaient aucun problème il y a quelques mois (même caméra, même logiciel, même version de windows 7).

    C'est incompréhensible. Dès sa sortie, PS23 a cessé de supporter le décodage audio des fichiers avec audio en Dolby AC3 sous Win7.

    Tu peux confirmer via Mediainfo que tes fichiers ont bien cette caractéristique ?

    Comment utiliser Mediainfo => http://forums.pinnaclesys.com/forums/thread/673466.aspx

  •  07-13-2021, 10:24 815557 in reply to 815545

    Re:Plus de son à l'importation de mes fichiers MTS - studio 23

    Attachment: film1.jpg

    Salut

    Joints le fichier texte media info et l'image des infos fournies par studio

    General

    ID                                       : 0 (0x0)

    Complete name                            : F:\videos-photos-LOEN-SWAN\2019\avril\moutons (7).MTS

    Format                                   : BDAV

    Format/Info                              : Blu-ray Video

    File size                                : 107 MiB

    Duration                                 : 39s 963ms

    Overall bit rate mode                    : Variable

    Overall bit rate                         : 22.5 Mbps

    Maximum Overall bit rate                 : 24.0 Mbps


    Video

    ID                                       : 4113 (0x1011)

    Menu ID                                  : 1 (0x1)

    Format                                   : AVC

    Format/Info                              : Advanced Video Codec

    Format profile                           : High@L4.0

    Format settings, CABAC                   : Yes

    Format settings, ReFrames                : 2 frames

    Format settings, GOP                     : M=2, N=13

    Codec ID                                 : 27

    Duration                                 : 39s 960ms

    Bit rate mode                            : Variable

    Bit rate                                 : 21.2 Mbps

    Maximum bit rate                         : 22.0 Mbps

    Width                                    : 1 920 pixels

    Height                                   : 1 080 pixels

    Display aspect ratio                     : 16:9

    Frame rate                               : 25.000 fps

    Color space                              : YUV

    Chroma subsampling                       : 4:2:0

    Bit depth                                : 8 bits

    Scan type                                : Interlaced

    Scan order                               : Top Field First

    Bits/(Pixel*Frame)                       : 0.408

    Stream size                              : 101 MiB (94%)


    Audio

    ID                                       : 4352 (0x1100)

    Menu ID                                  : 1 (0x1)

    Format                                   : AC-3

    Format/Info                              : Audio Coding 3

    Mode extension                           : CM (complete main)

    Format settings, Endianness              : Big

    Codec ID                                 : 129

    Duration                                 : 40s 64ms

    Bit rate mode                            : Constant

    Bit rate                                 : 448 Kbps

    Channel(s)                               : 6 channels

    Channel positions                        : Front: L C R, Side: L R, LFE

    Sampling rate                            : 48.0 KHz

    Bit depth                                : 16 bits

    Compression mode                         : Lossy

    Delay relative to video                  : -80ms

    Stream size                              : 2.14 MiB (2%)


    Text

    ID                                       : 4608 (0x1200)

    Menu ID                                  : 1 (0x1)

    Format                                   : PGS

    Codec ID                                 : 144

    Duration                                 : 39s 455ms

    Delay relative to video                  : -80ms 


  •  07-13-2021, 10:31 815558 in reply to 815557

    Re:Plus de son à l'importation de mes fichiers MTS - studio 23

    Donc c'est bien de l'AC3 et PS23 ne peut pas le lire sur une machine avec Win7. Pas d'autre solution que de passer à Win10 ou transcoder l'audio de tes fichiers avec Avidemux ou Handbrake.

    Désolé.

View as RSS news feed in XML
Copyright © 2012 Corel, Inc.. Terms of Use | Privacy Policy