Forums
in > Search
Welcome to Pinnacle Systems - Forums Sign in | Join | Help

mov file sound? pinnacle 12.1

Last post 10-08-2019, 20:36 by anon125. 9 replies.
Sort Posts: Previous Next
  •  09-30-2019, 11:40 789071

    mov file sound? pinnacle 12.1

    the computer does not connect to the internet.

    it is windows 7/64

    Mov files have no sound!

    they play in every thing else.

    what do i do?

    thanks

  •  09-30-2019, 15:27 789088 in reply to 789071

    Re:mov file sound? pinnacle 12.1

    Give a shot of Mediainfo to these mov and post here a screenshot of the tree view of Mediainfo.
  •  09-30-2019, 16:11 789106 in reply to 789088

    Re: Re:mov file sound? pinnacle 12.1

     thanks, does this help?

     

    General
    Complete name                            : E:\mov\CIMG1381.MOV
    Format                                   : MPEG-4
    Format profile                           : QuickTime
    Codec ID                                 : qt   2001.03 (qt  /caqv)
    File size                                : 23.8 MiB
    Duration                                 : 33 s 667 ms
    Overall bit rate mode                    : Variable
    Overall bit rate                         : 5 928 kb/s
    Encoded date                             : UTC 2008-04-15 19:30:30
    Tagged date                              : UTC 2008-04-15 19:30:30
    Writing application                      : Casio Digital Camera

    Video
    ID                                       : 1
    Format                                   : AVC
    Format/Info                              : Advanced Video Codec
    Format profile                           : Baseline@L3
    Format settings                          : 1 Ref Frames
    Format settings, CABAC                   : No
    Format settings, RefFrames               : 1 frame
    Format settings, GOP                     : M=1, N=30
    Codec ID                                 : avc1
    Codec ID/Info                            : Advanced Video Coding
    Duration                                 : 33 s 667 ms
    Bit rate mode                            : Variable
    Bit rate                                 : 5 572 kb/s
    Maximum bit rate                         : 11.5 Mb/s
    Width                                    : 640 pixels
    Height                                   : 480 pixels
    Display aspect ratio                     : 4:3
    Frame rate mode                          : Constant
    Frame rate                               : 29.970 (30000/1001) FPS
    Color space                              : YUV
    Chroma subsampling                       : 4:2:0
    Bit depth                                : 8 bits
    Scan type                                : Progressive
    Bits/(Pixel*Frame)                       : 0.605
    Stream size                              : 22.4 MiB (94%)
    Language                                 : English
    Encoded date                             : UTC 2008-04-15 19:30:30
    Tagged date                              : UTC 2008-04-15 19:30:30
    Codec configuration box                  : avcC

    Audio
    ID                                       : 2
    Format                                   : ADPCM
    Codec ID                                 : 11
    Codec ID/Hint                            : Intel
    Duration                                 : 33 s 600 ms
    Bit rate mode                            : Constant
    Bit rate                                 : 375 kb/s
    Channel(s)                               : 2 channels
    Channel layout                           : L R
    Sampling rate                            : 44.1 kHz
    Stream size                              : 1.50 MiB (6%)
    Language                                 : English
    Encoded date                             : UTC 2008-04-15 19:30:30
    Tagged date                              : UTC 2008-04-15 19:30:30


  •  10-07-2019, 15:20 789408 in reply to 789106

    Re: Re:mov file sound? pinnacle 12.1

    Any ideas on this MOV problem for pinnacle 12.1?

    i went online and converted one to avi. still wont work on pinny

    thanks

  •  10-07-2019, 16:08 789409 in reply to 789408

    mov file sound? pinnacle 12.1

    Avi is a container that holds, beside audio, also video.

    Point is the codec the video is compressed with.

    Apart from that, try to convert the mov to say mp4 with MPEG-2 codec with free Handbrake. 

     

  •  10-07-2019, 16:55 789411 in reply to 789408

    Re: Re:mov file sound? pinnacle 12.1

    I have never heard of handbrake.

    have you had much experience with it?

    hopefully it works on windows 7

     so far it says it needs some microsoft files- wish me luck!

    thanks

     

  •  10-07-2019, 18:01 789412 in reply to 789411

    Re: Re:mov file sound? pinnacle 12.1

    well it made them in m4v whatever that is!

    but they play in pinnacle.

    was there a better, sharper, choice of output?

     

    thanks

  •  10-08-2019, 14:46 789437 in reply to 789412

    mov file sound? pinnacle 12.1

    Never neede to use Handbrake.

    Your mov source file is SD 640x480px and thats in fact low quality compaired to actual HD and UHD formats.

    Converting SD to any other format will not make quality better.

    You could try my earlier suggestion. mp4 with mpeg-2 codec and compare the result with the m4v. 

  •  10-08-2019, 16:10 789438 in reply to 789437

    Re: mov file sound? pinnacle 12.1

    thanks

    the video is from 2007

    Did not understand " never need to use Handbrake"

    how else would i convert them?

    thanks

  •  10-08-2019, 20:36 789440 in reply to 789438

    Re: mov file sound? pinnacle 12.1

    Attachment: handbrake problem.PNG

    I selected the file type and codec you suggested but the file type came out different. wont even play in windows.

    what have i done wrong?

    thanks


View as RSS news feed in XML
Copyright © 2012 Corel, Inc.. Terms of Use | Privacy Policy