Forums
in > Search
Welcome to Pinnacle Systems - Forums Sign in | Join | Help

conservation du ratio d'image

Last post 09-20-2019, 9:29 by timlaugen. 7 replies.
Sort Posts: Previous Next
  •  09-18-2019, 6:28 788534

    conservation du ratio d'image

    bonjour 

    je test  studio 21 en  trial version  avant achat et je coince des le début avec les ratio d'image:

     j'ai des "clips" en format 4/3 qui proviennent de Caméscopes vhsC je les importe dans studio , ils restent bien en format 3/4 mais si je les mets dans la timeline ils sont transformés en 16/9 ( avec étirement des personnages ...) je voudrait conserver les images d’origines( 3/4) avec un fichier de sortie en 16/9 avec les bandes noirs sur les cotés pour pouvoir éventuellement y mettre des commentaires.

    je pense que c'est juste un réglage a faire mais je ne vois pas à quel endroit et je n'ai pas trouvé de message sur ce forum pour la solution.

    Merci beaucoup.

    Eric 

  •  09-18-2019, 9:09 788535 in reply to 788534

    Re:conservation du ratio d'image

    Attachment: 21 import.JPG

    Bonjour Eric et bienvenu sur ce forum.

    J'ai le même souci que toi, les captures .avi DV 4/3 apparaissent en 16/ 9  ( la capture est réalisée par 710 USB  à partir dun magnétoscope VHS S .)

    Malgré le réglage en 4/3 de l'import, le fichier est bien considéré comme 16/9 par MédiaInfo et donc Studio.

    Si tu captures en .mpeg le format est respecté ( 4/3)

    Sinon perso j'utilise une ancienne version de Studio ( de 12 à 17) pour faire la capture, dans ce cas l'import se fait bien en 4/3 en .avi.

    Il y a également la possibilité de capturer par un utilitaire gratuit: CaptureFlux de Paul Glagla. 

    Une autre possibilité est de diminuer la taille horizontale de la vidéo dans l'éditeur / propriétés ( voir PJ) 


  •  09-18-2019, 11:47 788537 in reply to 788535

    Re:conservation du ratio d'image

    francis57:

    J'ai le même souci que toi, les captures .avi DV 4/3 apparaissent en 16/ 9  ( la capture est réalisée par 710 USB  à partir dun magnétoscope VHS S .)

    Sauf qu'Eric parle d'import et pas de capture.

    Eric,

    Tu peux passer un coup de Mediainfo sur un de tes fichiers et nous poster le résultat de la vue Arbre ?

     

  •  09-18-2019, 17:36 788549 in reply to 788537

    Re:conservation du ratio d'image

    merci a vous francis 57 et saby

    pour la capture cela peut être intéressant aussi d'avoir un autre soft  , je la fait sur un autre pc

      voila les résultats de mediainfo d'un fichier que  j'ai importé ( donc recopié sur ce pc par pinnacle)  j'ai qu'une vue :

    "

    General

    Complete name               : C:\2019-09-17\VIDEO 2_0911_092318.mp4

    Format                      : MPEG-4

    Format profile              : Base Media

    Codec ID                    : isom (isom/iso2/avc1/mp41)

    File size                   : 52.8 MiB

    Duration                    : 3 min 5 s

    Overall bit rate            : 2 383 kb/s

    Writing application         : Lavf54.63.104


    Video

    ID                          : 1

    Format                      : AVC

    Format/Info                 : Advanced Video Codec

    Format profile              : Main@L3.1

    Format settings             : CABAC / 1 Ref Frames

    Format settings, CABAC      : Yes

    Format settings, ReFrames   : 1 frame

    Codec ID                    : avc1

    Codec ID/Info               : Advanced Video Coding

    Duration                    : 3 min 5 s

    Bit rate                    : 1 959 kb/s

    Width                       : 768 pixels

    Height                      : 576 pixels

    Display aspect ratio        : 4:3

    Frame rate mode             : Constant

    Frame rate                  : 25.000 FPS

    Color space                 : YUV

    Chroma subsampling          : 4:2:0

    Bit depth                   : 8 bits

    Scan type                   : Progressive

    Bits/(Pixel*Frame)          : 0.177

    Stream size                 : 45.6 MiB (86%)

    Writing library             : x264 core 129

    Encoding settings           : cabac=1 / ref=1 / deblock=1:0:0 / analyse=0x1:0x131 / me=dia / subme=2 / psy=1 / psy_rd=1.00:0.00 / mixed_ref=0 / me_range=16 / chroma_me=1 / trellis=0 / 8x8dct=0 / cqm=0 / deadzone=21,11 / fast_pskip=1 / chroma_qp_offset=0 / threads=4 / lookahead_threads=1 / sliced_threads=0 / nr=0 / decimate=1 / interlaced=0 / bluray_compat=0 / constrained_intra=0 / bframes=0 / weightp=2 / keyint=250 / keyint_min=25 / scenecut=40 / intra_refresh=0 / rc_lookahead=40 / rc=abr / mbtree=1 / bitrate=1959 / ratetol=1.0 / qcomp=0.60 / qpmin=10 / qpmax=51 / qpstep=4 / ip_ratio=1.41 / aq=1:1.00

    Codec configuration box     : avcC


    Audio

    ID                          : 2

    Format                      : MPEG Audio

    Format version              : Version 1

    Format profile              : Layer 3

    Format settings             : Joint stereo / MS Stereo

    Codec ID                    : mp4a-6B

    Duration                    : 3 min 5 s

    Duration_FirstFrame         : 48 ms

    Bit rate mode               : Constant

    Bit rate                    : 320 kb/s

    Channel(s)                  : 2 channels

    Sampling rate               : 48.0 kHz

    Compression mode            : Lossy

    Stream size                 : 7.09 MiB (13%)

    Writing library             : LAMEUUU

    Default                     : Yes

    Alternate group             : 1

    "

    j’espère que cela va comme ca

     merci encore


     ps: en affichant les informations des fichiers  sur la timeline suivant le format d'origine j'ai bien la résolution d'origine soit

    * pour un fichier mp4 :768*576 mais format de pixel a 1.33 et là la vidéo est étirée

    * pour un fichier mpeg :  768*576 , format de pixel 0.75 et la vidéo est carré donc rétrécie en largeur

     la difference deformat de  fichier vient du traitement a l'acquisition .

  •  09-18-2019, 17:37 788557 in reply to 788537

    Re:conservation du ratio d'image

    merci a vous francis 57 et saby

    pour la capture cela peut être intéressant aussi d'avoir un autre soft  , je la fait sur un autre pc

      voila les résultats de mediainfo d'un fichier que  j'ai importé ( donc recopié sur ce pc par pinnacle)  j'ai qu'une vue :

    "

    General

    Complete name               : C:\2019-09-17\VIDEO 2_0911_092318.mp4

    Format                      : MPEG-4

    Format profile              : Base Media

    Codec ID                    : isom (isom/iso2/avc1/mp41)

    File size                   : 52.8 MiB

    Duration                    : 3 min 5 s

    Overall bit rate            : 2 383 kb/s

    Writing application         : Lavf54.63.104


    Video

    ID                          : 1

    Format                      : AVC

    Format/Info                 : Advanced Video Codec

    Format profile              : Main@L3.1

    Format settings             : CABAC / 1 Ref Frames

    Format settings, CABAC      : Yes

    Format settings, ReFrames   : 1 frame

    Codec ID                    : avc1

    Codec ID/Info               : Advanced Video Coding

    Duration                    : 3 min 5 s

    Bit rate                    : 1 959 kb/s

    Width                       : 768 pixels

    Height                      : 576 pixels

    Display aspect ratio        : 4:3

    Frame rate mode             : Constant

    Frame rate                  : 25.000 FPS

    Color space                 : YUV

    Chroma subsampling          : 4:2:0

    Bit depth                   : 8 bits

    Scan type                   : Progressive

    Bits/(Pixel*Frame)          : 0.177

    Stream size                 : 45.6 MiB (86%)

    Writing library             : x264 core 129

    Encoding settings           : cabac=1 / ref=1 / deblock=1:0:0 / analyse=0x1:0x131 / me=dia / subme=2 / psy=1 / psy_rd=1.00:0.00 / mixed_ref=0 / me_range=16 / chroma_me=1 / trellis=0 / 8x8dct=0 / cqm=0 / deadzone=21,11 / fast_pskip=1 / chroma_qp_offset=0 / threads=4 / lookahead_threads=1 / sliced_threads=0 / nr=0 / decimate=1 / interlaced=0 / bluray_compat=0 / constrained_intra=0 / bframes=0 / weightp=2 / keyint=250 / keyint_min=25 / scenecut=40 / intra_refresh=0 / rc_lookahead=40 / rc=abr / mbtree=1 / bitrate=1959 / ratetol=1.0 / qcomp=0.60 / qpmin=10 / qpmax=51 / qpstep=4 / ip_ratio=1.41 / aq=1:1.00

    Codec configuration box     : avcC


    Audio

    ID                          : 2

    Format                      : MPEG Audio

    Format version              : Version 1

    Format profile              : Layer 3

    Format settings             : Joint stereo / MS Stereo

    Codec ID                    : mp4a-6B

    Duration                    : 3 min 5 s

    Duration_FirstFrame         : 48 ms

    Bit rate mode               : Constant

    Bit rate                    : 320 kb/s

    Channel(s)                  : 2 channels

    Sampling rate               : 48.0 kHz

    Compression mode            : Lossy

    Stream size                 : 7.09 MiB (13%)

    Writing library             : LAMEUUU

    Default                     : Yes

    Alternate group             : 1

    "

    j’espère que cela va comme ca

     merci encore

     

  •  09-18-2019, 17:45 788559 in reply to 788549

    Re:conservation du ratio d'image

    Ton fichier est bien déclaré comme étant en 4/3. Studio le traite donc comme tel.

    Avant de le descendre sur la timeline, tu peux essayer :

    • double-clic sur sa vignette dans la bibliothèque
    • Ajustements
    • Format d'image : affichage 16/9 ou PAL 16/9
    • ensuite tu descends le clip sur la timeline paramétrée en 16/9
  •  09-19-2019, 5:30 788566 in reply to 788557

    Re:conservation du ratio d'image

    Bonjour,

    tu fais ta capture par quel moyen à partir de ton magnétoscope ? 

  •  09-20-2019, 9:29 788610 in reply to 788534

    Re:conservation du ratio d'image

    Attachment: essai.png
    ebahuaud:

     je voudrait conserver les images d’origines( 3/4) 

    Eric 

     salut Eric , 

    j'espère avoir tout compris de ton problème , j'ai aussi des films en 4/3 et ils restent en 4/3 à l'export avec le réglage ci dessous . ...A+ 


View as RSS news feed in XML
Copyright © 2012 Corel, Inc.. Terms of Use | Privacy Policy